» » Black Therapy - The Final Outcome

Black Therapy - The Final Outcome mp3 album

Black Therapy - The Final Outcome mp3 album Performer: Black Therapy
Album: The Final Outcome
Released: 2014
Style: Death Metal
Size MP3: 1911 mb.
Size FLAC: 1873 mb.
Rating: 4.3/5
Votes: 101
Other Formats: MP2 RA AC3 ADX AUD MIDI MP4



Black Therapy discography (all). lt; Symptoms of a Common Sickness (2013). In the Embrace of Sorrow, I Smile (2016). 1. The Final Outcome.

Features Song Lyrics for Black Therapy's The Final Outcome album. The Final Outcome Lyrics. Black Therapy Lyrics provided by SongLyrics. All Music News . Popular Black Therapy Lyrics.

The Final Outcome (2014) by Black Therapy. Labels: Revalve Records. Genres: Melodic Death Metal. Songs: The Final Outcome, Black Crow, Mad World (Tears for Fears cover), Sunset of the Truth. Members: Giuseppe Massimiliano Di Giorgio, Lorenzo "Kallo" Carlini, Daniele Rizzo, Alessandro Finocchiaro, Luca Soldati.

extreme music, экстремальная музыка, metal, металл, grindcore, грайндкор, grind, brutal, брутал, black metal, блэк металл, doom metal, дум металл, death metal, дет метал, folk metal, pagan metal, heavy metal, хэви металл, gothic metal, готика, металл альбомы, free music, бесплатная музыка, свободный обмен музыкой, новинки, раритеты, new and rare music, music discussions, discographies, band history, дискографии, истории групп, обсуждение музыки.

Band Name Black Therapy. Album Name The Final Outcome. Type EP. Released date 17 October 2014. Labels Revalve Records. Music StyleMelodic Death. Members owning this album0. 3. Mad World ( Tears for Fears cover). 4. Sunset of the Truth. Other productions from Black Therapy. In the Embrace of Sorrow, I Smile.

The Final Outcome '2014. 2014 - The Final Outcome /Black Therapy - The Final Outcome. MACOSX/2014 - The Final Outcome, - . 0. MACOSX/2014 - The Final Outcome /. Black Therapy - The Final Outcome.

PERFORMER "Black Therapy" FLAGS DCP INDEX 00 03:33:64 INDEX 01 03:35:64 TRACK 03 AUDIO TITLE "Advance" PERFORMER "Black Therapy" FLAGS DCP INDEX 00 07:29:65 INDEX 01 07:31:65 TRACK 04 AUDIO TITLE "The Time Is Dead" PERFORMER "Black Therapy" FLAGS DCP INDEX 00 10:51:63 INDEX 01 10:53:63 TRACK 05 AUDIO TITLE "Symptoms. Exact Audio Copy V. from 23. June 2015 EAC extraction logfile from 7. April 2016, 17:06 Black Therapy, The Final Outcome Used drive : HL-DT-STBD-RE BT11F Adapter: 1 ID: 0 Read mode : Secure Utilize accurate stream : Yes Defeat audio cache : Yes Make use of C2 pointers : No Read offset correction : 667 Overread into Lead-In and Lead-Out : No Fill up missing offset.

Tracklist

1 The Final Outcome 4:00
2 Black Crow 3:55
3 Mad World 3:53
4 Sunset Of The Truth 3:51

Companies, etc.

  • Recorded At – 16th Cellar Studio
  • Mixed At – 16th Cellar Studio

Credits

  • Bass Guitar – Alessandro Finocchiaro
  • Drums – Luca Soldati
  • Guitar – Daniele Rizzo, Lorenzo Carlini
  • Piano – Francesco Ferrini (tracks: 2)
  • Recorded By, Mixed By – Stefano Morabito
  • Video Editor [Lyric Video] – Goffredo Passi (tracks: 1)
  • Vocals – Giuseppe Di Giorgio

Barcode and Other Identifiers

  • Barcode: 3610158614003